extratorrent - A Fan Made Alternative Login   |   Register
Important Information
Registrations are open now
-------------------------------------

Please click here to register with Extratorrent2 to recieve latest updates, add bookmarks and to post comments.

Friends
Friends

1) ProxyFix

Extratorrent2 > Categories > XXX > BaDoinkVR - My Crazy Anal Valentine - Vinna Reed & Isabella Lui Oculus torrent


Browse XXX torrents

BaDoinkVR - My Crazy Anal Valentine - Vinna Reed & Isabella Lui Oculus torrent


Download torrent: Download BaDoinkVR - My Crazy Anal Valentine - Vinna Reed & Isabella Lui Oculus torrent Magnet link Bookmark Torrent: BaDoinkVR - My Crazy Anal Valentine - Vinna Reed & Isabella Lui Oculus   BaDoinkVR - My Crazy Anal Valentine - Vinna Reed & Isabella Lui Oculus torrent
Info hash: FB7F3197492A2B7234074C17530D56ACB016A4A2
Category: Categories > XXX
Trackers:
View all torrent trackers >
Health:
 seeds: 2 ,  leechers: 8 |  Update >
Torrent language: English English
Total Size: 6.7 GB
Files List:
2    View torrent files >
Uploader:
thetorrentup
Torrent added: February 22, 2017, 12:15 pm
Tags: XXX, Video, English
Users rating: ---, not rated. please login to rate.

Download BaDoinkVR - My Crazy Anal Valentine - Vinna Reed & Isabella Lui Oculus torrent



Torrent Description

























Description | | Upcomming Scenes | Thanks&Comments





My Crazy Anal Valentine Vinna Reed

Scene description :
So your girlfriend, Vinna Reed, is a little bit crazy. Thats part of what attracted you to her in the first place; what makes the sex with her so passionate and exciting. In fact, just for Valentines Day, shes prepared to have anal sex with you for the first time. That is, until the neighbors start making a lot of noise, and your girl loses her cool, banging hard on their wall. Isabella Lui, an even more insane fellow European hottie, storms into your apartment, determined to show Vinna whos boss. Of course, when she finds you in bed naked, it makes her horny just thinking of the possibilities. Before you know it, this hot redhead is about to coach your girl through the whole thing, and join in herself as a Valentines Day three-way bonus. Pound both of these tight European buttholes in a hot VR anal threesome thatll remind you that this makes you much happier than "normal" ever did.


Sexacts :
Blowjob, Anal, Reverse cowgirl, Cowgirl, Kissing, Handjob finish

Bio :
Blue-eyed blonde Vinna Reed is a 27-year-old porn pro from the Czech Republic. If you thought that the flat-chested Girl with the Dragon Tattoo from the movie was hot (but a little too masculine), then this inked European hottie might just be the alternative youve been hoping for. Vinna also sports a dragon tattoo on her right shoulder blade and is just as skinny as her namesake, but she makes up for the lack of breast meat with one of the juiciest pussies in porn. If youre into petite cuties with meaty labia that just beg to be munched on you might want to give this model a try. With such and inviting and smooth shaven vagina its no wonder that a third of her 60 movie credits are currently tagged as girl-on-girl lesbian scenes. Vinna Reed also does anal scenes, masturbation videos and lots of creampie shoots, which doesnt come as a big surprise considering her deliciously overdeveloped cum-catcher. As many girls tentatively begin to dabble in Virtual Reality Vinnas VR output is already remarkable. At this point in time, shes already been credited with 15 Virtual Reality scenes and her 3D portfolio is growing by the week. We recommend checking out "Pokemon Blow", "Under My Skirt" and "Dosed In Pantyhose" as a starting point for all you technophile muff-divers. A snatch like this needs to be experienced up-close and personal. Vinna describes herself as shy and reserved, which is hard to believe when you see her perform. She is smart, sexy and always up for a quick lap dance. So fire up those VR goggles and let her grind your crotch raw.



File Type MPEG-4 Length 31min 45sec Resolution 4096x2048 Frame Rate 60fps Bit rate 30.2 Mb/s File Size 6.69 GiB Release date 9 February 2017
Advanced info
Format : MPEG-4
Format profile : Base Media / Version 2
Codec ID : mp42 (mp42/mp41)
File size : 6.69 GiB
Duration : 31 min 45 s
Overall bit rate mode : Variable
Overall bit rate : 30.2 Mb/s
Encoded date : UTC 2017-02-01 14:31:56
Tagged date : UTC 2017-02-01 14:35:31
TIM : 00:00:00:00
TSC : 60000
TSZ : 1001

Video
ID : 1
Format : AVC
Format/Info : Advanced Video Codec
Format profile :
Format settings, CABAC : Yes
Format settings, ReFrames : 3 frames
Format settings, GOP : M=3, N=59
Codec ID : avc1
Codec ID/Info : Advanced Video Coding
Duration : 31 min 45 s
Bit rate mode : Variable
Bit rate : 30.0 Mb/s
Width : 4 096 pixels
Height : 2 048 pixels
Display aspect ratio : 2.000
Frame rate mode : Constant
Frame rate : 59.940 (60000/1001) FPS
Standard : NTSC
Color space : YUV
Chroma subsampling : 4:2:0
Bit depth : 8 bits
Scan type : Progressive
Bits/(Pixel*Frame) : 0.060
Stream size : 6.62 GiB (99%)
Language : English
Encoded date : UTC 2017-02-01 14:31:56
Tagged date : UTC 2017-02-07 12:16:46
Color range : Limited
Color primaries : BT.709
Transfer characteristics : BT.709
Matrix coefficients : BT.709

Audio
ID : 2
Format : AAC
Format/Info : Advanced Audio Codec
Format profile : LC
Codec ID : 40
Duration : 31 min 45 s
Source duration : 31 min 45 s
Bit rate mode : Variable
Bit rate : 317 kb/s
Maximum bit rate : 464 kb/s
Channel(s) : 2 channels
Channel positions : Front: L R
Sampling rate : 48.0 kHz
Frame rate : 46.875 FPS (1024 spf)
Compression mode : Lossy
Stream size : 72.1 MiB (1%)
Source stream size : 72.1 MiB (1%)
Language : English
Encoded date : UTC 2017-02-01 14:31:56
Tagged date : UTC 2017-02-07 12:16:46


Isabella Lui

Bio :
Isabella Lui is a 27-year-old porn star and adult model from the Czech Republic. In Switzerland and Germany, the beautiful redhead has already made a name for herself as a live sex performer in various swinger clubs and other erotic establishments. Her actual on-camera porn career started only a year ago in 2016 when she starred in the watersports video "Piss Deluxe 8". To better her chances of making it big in adult entertainment Lui has had her breasts enlarged and now boasts measurements of 36C-25-36. Slender and curvy, just the way we like it. Isabella performed a live solo masturbation scene in front of a suitably impressed crowd at the annual Venus Berlin award show. Most memorable about that appearance was her decision to go full frontal. No lingerie, no high heels, no sex toys, just 100% naked and focused on giving her fans an authentically climactic experience; proof of confidence sometimes lacking in younger porn starlets. Since that remarkable show, Lui has appeared in several major studio productions such as the "Gangbang Stars" and "Flexy Cunts" video series. In search of new professional challenges Isabella has recently ventured into the realm of Virtual Reality and managed to impress with 3D releases like "Lounge Perversions" and "Toys R Ass" in 2017. After shooting with monster-cock Rocco Siffredi, which is often regarded as a make-or-break point in many young pornstars careers, she feels confident in being able to take on the most demanding of hardcore assignments. Despite her general interest in new technologies, Isabella Lui isnt much of a geek. She is, however, a casual mobile gamer and seriously addicted to playing The Tribez on her Android phone.


























Download BaDoinkVR - My Crazy Anal Valentine - Vinna Reed & Isabella Lui Oculus torrent


Related Torrents


Comments   (please login to add your comment!)

hindi 2018 bluray     elegantangel     dallas     turn left turn right     maiala     denim     divine     the great wall 1080p bluray     kavi sammelan     mldo     wife anal     kil dil 2014     utr     the bigger they     TOOL     


Home - Browse Torrents

Made with love by an Extratorrent Fan!